Начать новую тему Ответить на тему
Статистика раздачи
Размер: 2.2 ГБ | Добавлен: 13 янв 2012, 23:49
Сидеров: 4    Личеров: 3
Автор Сообщение

СообщениеДобавлено: 13 янв 2012, 23:49 

Не в сети
Аватара пользователя
Раздал: 0 байт
Скачал: 0 байт
Ратио: Inf.
Спасибо: 3179 / 43
Сообщения: 23186
Откуда: 9CaraTT.COM
Зарегистрирован: 10 янв 2012, 22:17
Однажды в Ирландии/The Guard

#77
Перевод: Любительский (двухголосый закадровый), Любительский (одноголосый закадровый)
Субтитры: Русские, Английские
Формат: HDRip-AVC, MKV, H.264, AC3
Страна: Ирландия
Режиссер: Джон Майкл МакДонах
Жанр: Триллер, комедия, криминал
Продолжительность: 01:32:11
Год выпуска: 2011

В ролях: Брендан Глисон, Дон Чидл, Марк Стронг, Лиам Каннингэм, Дэвид Уилмот, Рори Кинэн, Фионнула Флэнаган, Доминик МакЭллигот, Сара Грин, Катарина Кэс и др.

Описание: Женщины, выпивка и веселые шутки — вот радости добродушного ирландского полицейского, сержанта Джерри Бойла. Он никогда не помышлял о геройстве, пока однажды в Дублине не появился агент ФБР, который призвал незадачливого служителя порядка помочь ему накрыть международную банду наркоторговцев. Смогут ли сработаться веселый рыжий ирландец и решительный афроамериканец? Ведь дело, за которое они взялись, окажется таким же непредсказуемым, как и они сами…


Видео: 1056x448(2,35:1),25,000 кадр/сек,AVC(x264),High@L4.1~2389Kbps,0.202bit/pixel
Аудио 1: Русский:48,0 КГц,AC3 6 каналов,(L,C,R,l,r) + LFE,~448kbps Любительский (двухголосый закадровый)
Аудио 2: Русский:48,0 КГц / 24,0 КГц,AAC 2 канала (l,r),~128 kbps Любительский (одноголосый закадровый) |KIKTEAM|[/field]
Аудио 3: Английский:48,0 КГц,AC3 6 каналов,(L,C,R,l,r) + LFE,~448kbps (Оригинал)[/field]




Общее
Уникальный идентификатор: 217588814763015923948030188740905351043 (0xA3B214D61426C882A5450004EA113783)
Полное имя: D:\Интернет\Новая папка (2)\odnachdi_v_irlandii_[rutracker.in].mkv
Формат: Matroska
Версия формата: Version 2
Размер файла: 2,20 Гбайт
Продолжительность: 1 ч. 32 м.
Общий поток: 3411 Кбит/сек
Название фильма: Однажды в Ирландии / Залечь на дно в Дублине
Дата кодирования: UTC 2011-12-14 15:37:50
Программа кодирования: mkvmerge v4.9.1 ('Ich will') сборка от Aug 10 2011 09:31:20
Библиотека кодирования: libebml v1.2.1 + libmatroska v1.2.0

Видео
Идентификатор: 1
Формат: AVC
Формат/Информация: Advanced Video Codec
Профиль формата: High@L4.1
Параметр CABAC формата: Да
Параметр ReFrames формата: 8 кадров
Параметры GOP формата: M=1, N=26
Идентификатор кодека: V_MPEG4/ISO/AVC
Продолжительность: 1 ч. 32 м.
Номинальный битрейт: 2389 Кбит/сек
Ширина: 1056 пикс.
Высота: 448 пикс.
Соотношение сторон: 2,35:1
Частота кадров: 25,000 кадр/сек
Цветовое пространство: YUV
Подвыборка цветности: 4:2:0
Битовая глубина: 8 бит
Тип развёртки: Прогрессивная
Бит/(Пиксели*Кадры): 0.202
Библиотека кодирования: x264 core 116 r2074 2641b9e
Настройки программы: cabac=1 / ref=8 / deblock=1:-2:-1 / analyse=0x3:0x113 / me=umh / subme=10 / psy=1 / psy_rd=1.00:0.20 / mixed_ref=1 / me_range=32 / chroma_me=1 / trellis=2 / 8x8dct=1 / cqm=0 / deadzone=21,11 / fast_pskip=0 / chroma_qp_offset=-3 / threads=12 / sliced_threads=0 / nr=0 / decimate=1 / interlaced=0 / bluray_compat=0 / constrained_intra=0 / bframes=8 / b_pyramid=2 / b_adapt=2 / b_bias=0 / direct=3 / weightb=1 / open_gop=0 / weightp=2 / keyint=250 / keyint_min=25 / scenecut=40 / intra_refresh=0 / rc_lookahead=50 / rc=2pass / mbtree=1 / bitrate=2389 / ratetol=1.0 / qcomp=0.60 / qpmin=0 / qpmax=69 / qpstep=4 / cplxblur=20.0 / qblur=0.5 / ip_ratio=1.40 / aq=1:1.00
Язык: English

Аудио #1
Идентификатор: 2
Формат: AC-3
Формат/Информация: Audio Coding 3
Расширение режима: CM (complete main)
Идентификатор кодека: A_AC3
Продолжительность: 1 ч. 32 м.
Вид битрейта: Постоянный
Битрейт: 448 Кбит/сек
Каналы: 6 каналов
Расположение каналов: Front: L C R, Side: L R, LFE
Частота: 48,0 КГц
Битовая глубина: 16 бит
Метод сжатия: С потерями
Размер потока: 296 Мбайт (13%)
Заголовок: DVO
Язык: Russian

Аудио #2
Идентификатор: 3
Формат: AAC
Формат/Информация: Advanced Audio Codec
Профиль формата: HE-AAC / LC
Идентификатор кодека: A_AAC
Продолжительность: 1 ч. 32 м.
Каналы: 2 канала
Расположение каналов: Front: L R
Частота: 48,0 КГц / 24,0 КГц
Метод сжатия: С потерями
Заголовок: KIKTEAM
Язык: Russian

Аудио #3
Идентификатор: 4
Формат: AC-3
Формат/Информация: Audio Coding 3
Расширение режима: CM (complete main)
Идентификатор кодека: A_AC3
Продолжительность: 1 ч. 32 м.
Вид битрейта: Постоянный
Битрейт: 448 Кбит/сек
Каналы: 6 каналов
Расположение каналов: Front: L C R, Side: L R, LFE
Частота: 48,0 КГц
Битовая глубина: 16 бит
Метод сжатия: С потерями
Размер потока: 296 Мбайт (13%)
Язык: English

Текст #1
Идентификатор: 5
Формат: UTF-8
Идентификатор кодека: S_TEXT/UTF8
Идентификатор кодека/Информация: UTF-8 Plain Text
Заголовок: Dr.pro
Язык: Russian

Текст #2
Идентификатор: 6
Формат: UTF-8
Идентификатор кодека: S_TEXT/UTF8
Идентификатор кодека/Информация: UTF-8 Plain Text
Язык: English











Поделиться:

Торрент:  Добавлен [13 янв 2012, 23:49]

Скачать торрент Магнет ссылка
Скачать торрент

Кем проверен:
 
Размер:  2.2 ГБ
Скачали:  2
Здоровье: 100%
Приватный:  Нет (DHT включён)


Вернуться к началу
 Профиль  
 
Начать новую тему Ответить на тему  [ 1 сообщение ] 
   Похожие торренты   Автор   Торрент   Размер 
В этой теме нет новых непрочитанных сообщений. Джон Кью / John Q [Триллер, драма, криминал, 2002] BDRip 720p, Mvo

jons3

0 | 0

4.37 ГБ

В этой теме нет новых непрочитанных сообщений. Джон Уик / John Wick [боевик, триллер, криминал, 2014] BDRip-AVC, Dub+Avo+Sub

jons3

382 | 79

1.47 ГБ

В этой теме нет новых непрочитанных сообщений. Майкл / Michael [фэнтези, драма, комедия, 1996] WEB-DLRip-AVC, Dvo [НТВ+]

jons3

0 | 0

1.45 ГБ

В этой теме нет новых непрочитанных сообщений. Майкл / Michael [фэнтези, драма, комедия, 1996] WEB-DL 1080p, Dvo

jons3

0 | 0

9.83 ГБ

В этой теме нет новых непрочитанных сообщений. Майкл / Michael [фэнтези, драма, комедия, 1996] HDTVRip, Dvo [НТВ+]

jons3

13 | 1

1.46 ГБ




Вы не можете начинать темы
Вы не можете отвечать на сообщения
Вы не можете редактировать свои сообщения
Вы не можете удалять свои сообщения
Вы не можете добавлять вложения

Перейти:  
cron