Начать новую тему Ответить на тему
Статистика раздачи
Размер: 2.04 ГБ | Добавлен: 13 янв 2012, 23:49
Сидеров: 9    Личеров: 6
Автор Сообщение

СообщениеДобавлено: 13 янв 2012, 23:49 

Не в сети
Аватара пользователя
Раздал: 0 байт
Скачал: 0 байт
Ратио: Inf.
Спасибо: 3179 / 43
Сообщения: 23186
Откуда: 9CaraTT.COM
Зарегистрирован: 10 янв 2012, 22:17
[b]Дом грёз / Dream House[/b]


#77Перевод: Профессиональный (полное дублирование)
Субтитры: отсутствуют
Формат: HDRip-AVC, MKV, H.264, AC3

Страна: США

Режиссер: Джим Шеридан
Жанр: триллер, драма, детектив
Продолжительность: 01:30:50
Год выпуска: 2011

В ролях: Дэниэл Крэйг, Рейчел Вайс, Наоми Уоттс, Элиас Котеас, Мартон Чокаш, Тейлор Джир, Клер Джир, Рэйчел Дж. Фокс, Джейн Александр, Брайан Мюррей.

Описание: Состоятельный издатель со своей женой и двумя дочерьми переезжают в тихий провинциальный городок, который на поверку оказывается не таким уж и тихим. При участии любопытной соседки семейство узнает, что их дом стал местом жестокого убийства, а преступник до сих пор разгуливает на свободе...



Видео: 1024x432 (2.35:1), 23.976 fps, AVC MPEG-4 High@L4.1, ~2870 kbps avg, 0.271 bit/pixel
Аудио: 48 kHz, AC3 Dolby Digital, 3/2 (L,C,R,l,r) + LFE ch, ~384 kbps avg

Релиз группы

Рип от: __


General
Unique ID: 208693629057759988381602687187314034539 (0x9D00EE521E283E33BBDF1F8E4EDC476B)
Complete name: D:\Мои рипы\Dom.grez.2011.D.HDRip.mkv
Format: Matroska
Format version: Version 2
File size: 2.04 GiB
Duration: 1h 30mn
Overall bit rate: 3 213 Kbps
Movie name: Dream.House.S.I.D
Encoded date: UTC 2011-12-14 21:10:29
Writing application: mkvmerge v2.9.8 ('C'est le bon') built on Aug 13 2009 12:49:06
Writing library: libebml v0.7.7 + libmatroska v0.8.1

Video
ID: 1
Format: AVC
Format/Info: Advanced Video Codec
Format profile: High@L4.1
Format settings, CABAC: Yes
Format settings, ReFrames: 8 frames
Codec ID: V_MPEG4/ISO/AVC
Duration: 1h 30mn
Bit rate: 2 870 Kbps
Width: 1 024 pixels
Height: 432 pixels
Display aspect ratio: 2.35:1
Frame rate: 23.976 fps
Color space: YUV
Chroma subsampling: 4:2:0
Bit depth: 8 bits
Scan type: Progressive
Bits/(Pixel*Frame): 0.271
Stream size: 1.75 GiB (86%)
Writing library: x264 core 119 r2106 07efeb4
Encoding settings: cabac=1 / ref=8 / deblock=1:-1:-1 / analyse=0x3:0x111 / me=umh / subme=0 / psy=1 / psy_rd=1.00:0.10 / mixed_ref=1 / me_range=16 / chroma_me=1 / trellis=2 / 8x8dct=1 / cqm=0 / deadzone=21,11 / fast_pskip=0 / chroma_qp_offset=-1 / threads=6 / sliced_threads=0 / nr=0 / decimate=1 / interlaced=0 / bluray_compat=0 / constrained_intra=0 / bframes=8 / b_pyramid=2 / b_adapt=2 / b_bias=0 / direct=1 / weightb=1 / open_gop=0 / weightp=2 / keyint=250 / keyint_min=23 / scenecut=40 / intra_refresh=0 / rc_lookahead=40 / rc=abr / mbtree=1 / bitrate=2870 / ratetol=1.0 / qcomp=0.60 / qpmin=0 / qpmax=69 / qpstep=4 / ip_ratio=1.40 / aq=1:1.00
Language: English
Default: Yes
Forced: No

Audio
ID: 2
Format: AC-3
Format/Info: Audio Coding 3
Mode extension: CM (complete main)
Codec ID: A_AC3
Duration: 1h 30mn
Bit rate mode: Constant
Bit rate: 384 Kbps
Channel(s): 6 channels
Channel positions: Front: L C R, Side: L R, LFE
Sampling rate: 48.0 KHz
Bit depth: 16 bits
Compression mode: Lossy
Stream size: 249 MiB (12%)
Title: Дубляж
Language: Russian
Default: Yes
Forced: No








Поделиться:

Торрент:  Добавлен [13 янв 2012, 23:49]

Скачать торрент Магнет ссылка
Скачать торрент

Кем проверен:
 
Размер:  2.04 ГБ
Скачали:  29
Здоровье: 100%
Приватный:  Нет (DHT включён)


Вернуться к началу
 Профиль  
 
Начать новую тему Ответить на тему  [ 1 сообщение ] 
   Похожие торренты   Автор   Торрент   Размер 
В этой теме нет новых непрочитанных сообщений. Страна грез / Dreamland [драма, комедия, музыка, 2016] WEB-DLRip, Mvo

jons3

239 | 69

1.36 ГБ

В этой теме нет новых непрочитанных сообщений. Просто Джим / Just Jim [Триллер, драма, комедия, 2015] WEB-DLRip, Mvo

jons3

39 | 7

1.36 ГБ

В этой теме нет новых непрочитанных сообщений. Вход в никуда / Enter Nowhere [триллер, детектив, фантастика, 2011] HDRip, Mvo

jons3

60 | 2

1.45 ГБ

В этой теме нет новых непрочитанных сообщений. Где-то там / Elsewhere [триллер, детектив, драма, 2009] HDRip, Dvo

jons3

142 | 44

1.46 ГБ

В этой теме нет новых непрочитанных сообщений. Ханна. Совершенное оружие / Hanna [боевик, триллер, детектив, 2011] HDRip, Dub

jons3

161 | 19

1.46 ГБ




Вы не можете начинать темы
Вы не можете отвечать на сообщения
Вы не можете редактировать свои сообщения
Вы не можете удалять свои сообщения
Вы не можете добавлять вложения

Перейти:  
cron