Начать новую тему Ответить на тему
Статистика раздачи
Размер: 705.13 МБ | Добавлен: 13 янв 2012, 23:50
Сидеров: 41    Личеров: 6
Автор Сообщение

СообщениеДобавлено: 13 янв 2012, 23:50 

Не в сети
Аватара пользователя
Раздал: 0 байт
Скачал: 0 байт
Ратио: Inf.
Спасибо: 3179 / 43
Сообщения: 23186
Откуда: 9CaraTT.COM
Зарегистрирован: 10 янв 2012, 22:17
Шпион, выйди вон! / Tinker Tailor Soldier Spy

#77
Перевод: Профессиональный (полное дублирование)
Субтитры: Отсутствуют
Формат: CamRip, AVI, XviD, MP3
Страна: Германия, Франция, Великобритания
Режиссер: Томас Альфредсон
Жанр: триллер, детектив
Продолжительность: 01:52:09
Год выпуска: 2011
В ролях: Гари Олдман, Колин Фёрт, Том Харди, Джон Хёрт, Тоби Джонс, Марк Стронг, Бенедикт Камбербэтч, Кьяран Хайндс, Константин Хабенский, Светлана Ходченкова
Описание: Многие сотрудники британской разведки догадывались, что в ее руководстве давно засел «крот», работающий на Россию. Но те, кто отваживался об этом заявлять открыто, почему-то оказывались в отставке. Остальные предпочитали помалкивать. Но подтверждение существования русского агента пришло с совсем неожиданной стороны. Начинается тайное расследование, возглавляемое находящимся в отставке Джорджем Смайли. И никто, включая высшее руководство разведки, не должен догадаться, что на крота снова объявлена охота.



Видео: 720x320 (2,25:1), 25 fps, XviD MPEG-4 Visual ~741 kbps avg, 0.129 bit/pixel
Аудио: 48,000 kHz, MPEG Layer 3, 2 ch, ~128 kbps avg

Общее
Полное имя: Shpion_viijdi_von.avi
Формат: AVI
Формат/Информация: Audio Video Interleave
Размер файла: 705 Мбайт
Продолжительность: 1 ч. 52 м.
Общий поток: 879 Кбит/сек
Программа кодирования: VirtualDubMod 1.5.10.3 | www.virtualdub-fr.org || (build 2550/release)
Библиотека кодирования: VirtualDubMod build 2550/release

Видео
Идентификатор: 0
Формат: MPEG-4 Visual
Профиль формата: Advanced Simple@L5
Параметр BVOP формата: 2
Параметр QPel формата: Нет
Параметр GMC формата: 3 точки перехода
Параметр матрицы формата: Default (H.263)
Режим смешивания: Сжатый битовый поток
Идентификатор кодека: XVID
Идентификатор кодека/Подсказка: XviD
Продолжительность: 1 ч. 52 м.
Битрейт: 741 Кбит/сек
Ширина: 720 пикселей
Высота: 320 пикселей
Соотношение сторон: 2,25:1
Частота кадров: 25,000 кадров/сек
Цветовое пространство: YUV
Субдискретизация насыщенности: 4:2:0
Битовая глубина: 8 бит
Тип развёртки: Прогрессивная
Метод сжатия: С потерями
Бит/(Пиксели*Кадры): 0.129
Размер потока: 595 Мбайт (84%)
Библиотека кодирования: XviD 61

Аудио
Идентификатор: 1
Формат: MPEG Audio
Версия формата: Version 1
Профиль формата: Layer 3
Режим: Joint stereo
Расширение режима: MS Stereo
Идентификатор кодека: 55
Идентификатор кодека/Подсказка: MP3
Продолжительность: 1 ч. 52 м.
Вид битрейта: Постоянный
Битрейт: 128 Кбит/сек
Каналы: 2 канала
Частота: 48,0 КГц
Метод сжатия: С потерями
Размер потока: 103 Мбайт (15%)
Выравнивание: Соединение по промежуткам
Продолжительность промежутка: 40мс. (1,00 видеокадр)
Время предзагрузки промежутка: 504мс.
Библиотека кодирования: LAME3.98r
Настройки программы: -m j -V 4 -q 2 -lowpass 17 -b 128








Поделиться:

Торрент:  Добавлен [13 янв 2012, 23:50]

Скачать торрент Магнет ссылка
Скачать торрент

Кем проверен:
 
Размер:  705.13 МБ
Скачали:  3
Здоровье: 100%
Приватный:  Нет (DHT включён)


Вернуться к началу
 Профиль  
 
Начать новую тему Ответить на тему  [ 1 сообщение ] 
   Похожие торренты   Автор   Торрент   Размер 
В этой теме нет новых непрочитанных сообщений. Шпион, выйди вон! / Tinker Tailor Soldier Spy [триллер, детектив, 2011] HDRip, Dub

jons3

176 | 28

1.45 ГБ

В этой теме нет новых непрочитанных сообщений. Портной из Панамы / The Tailor Of Panama [Триллер, драма, комедия, 2001] Blu-ray 1080p, Mvo

jons3

44 | 49

29.12 ГБ

В этой теме нет новых непрочитанных сообщений. Портной Из Панамы / The Tailor Of Panama [Триллер, драма, 2001] BDRip 720p, Mvo+Avo+Sub

jons3

14 | 0

5.21 ГБ

В этой теме нет новых непрочитанных сообщений. Матрица времени / Before I Fall [триллер, драма, детектив, 2017] CAMRip, Mvo

jons3

2385 | 446

1.37 ГБ

В этой теме нет новых непрочитанных сообщений. Нерв / Nerve (Генри Джуст, Эриель Шульман) [2016, триллер, криминал, детектив, приключения, WEB-DLRip 1080р | Звук с CAMRip]

marya111

935 | 60

3.37 ГБ




Вы не можете начинать темы
Вы не можете отвечать на сообщения
Вы не можете редактировать свои сообщения
Вы не можете удалять свои сообщения
Вы не можете добавлять вложения

Перейти:  
cron