Начать новую тему Ответить на тему
Статистика раздачи
Размер: 703.98 МБ | Добавлен: 13 янв 2012, 23:50
Сидеров: 21    Личеров: 7
Автор Сообщение

СообщениеДобавлено: 13 янв 2012, 23:50 

Не в сети
Аватара пользователя
Раздал: 0 байт
Скачал: 0 байт
Ратио: Inf.
Спасибо: 3179 / 43
Сообщения: 23186
Откуда: 9CaraTT.COM
Зарегистрирован: 10 янв 2012, 22:17
Мартовские иды / The Ides of March

#77
Перевод: Любительский (одноголосый)
Субтитры: Отсутствуют
Формат: DVDScreener, AVI, XviD, AC3
Страна: США
Режиссер: Джордж Клуни
Жанр: драма
Продолжительность: 01:41:07
Год выпуска: 2011
В ролях: Райан Гослинг, Джордж Клуни, Филип Сеймур Хоффман, Пол Джаматти, Мариса Томей, Джеффри Райт, Ивэн Рэйчел Вуд, Макс Мингелла, Лоурен Мэй Шафер, Дэнни Муни
Описание: В фильме рассказывается об избирательной кампании Говарда Дина, проводившейся во время первичных выборов кандидата на пост президента США от демократической партии в 2004 году.



Видео: 640x272 (2,35:1), 23,976 fps, XviD MPEG-4 Visual ~836 kbps avg, 0.200 bit/pixel
Аудио: 48,000 kHz, Audio Coding 3, 2 ch, ~128.00 kbps avg


Общее
Полное имя: Martovskie_idy.avi
Формат: AVI
Формат/Информация: Audio Video Interleave
Размер файла: 704 Мбайт
Продолжительность: 1 ч. 41 м.
Общий поток: 973 Кбит/сек
Программа кодирования: VirtualDubMod 1.5.10.2 (build 2540/release)
Библиотека кодирования: VirtualDubMod build 2540/release

Видео
Идентификатор: 0
Формат: MPEG-4 Visual
Профиль формата: Simple@L3
Параметр BVOP формата: Нет
Параметр QPel формата: Нет
Параметр GMC формата: Без точки перехода
Параметр матрицы формата: Default (H.263)
Идентификатор кодека: XVID
Идентификатор кодека/Подсказка: XviD
Продолжительность: 1 ч. 41 м.
Битрейт: 836 Кбит/сек
Ширина: 640 пикселей
Высота: 272 пикселя
Соотношение сторон: 2,35:1
Частота кадров: 23,976 кадра/сек
Цветовое пространство: YUV
Субдискретизация насыщенности: 4:2:0
Битовая глубина: 8 бит
Тип развёртки: Прогрессивная
Метод сжатия: С потерями
Бит/(Пиксели*Кадры): 0.200
Размер потока: 605 Мбайт (86%)
Библиотека кодирования: XviD 1.1.2 (UTC 2006-11-01)

Аудио
Идентификатор: 1
Формат: AC-3
Формат/Информация: Audio Coding 3
Расширение режима: CM (complete main)
Идентификатор кодека: 2000
Продолжительность: 1 ч. 41 м.
Вид битрейта: Постоянный
Битрейт: 128 Кбит/сек
Каналы: 2 канала
Расположение каналов: Front: L R
Частота: 48,0 КГц
Битовая глубина: 16 бит
Метод сжатия: С потерями
Размер потока: 92,6 Мбайт (13%)
Выравнивание: Соединение по промежуткам
Продолжительность промежутка: 42мс. (1,00 видеокадр)
Время предзагрузки промежутка: 512мс.








Поделиться:

Торрент:  Добавлен [13 янв 2012, 23:50]

Скачать торрент Магнет ссылка
Скачать торрент

Кем проверен:
 
Размер:  703.98 МБ
Скачали:  39
Здоровье: 100%
Приватный:  Нет (DHT включён)


Вернуться к началу
 Профиль  
 
Начать новую тему Ответить на тему  [ 1 сообщение ] 
   Похожие торренты   Автор   Торрент   Размер 
В этой теме нет новых непрочитанных сообщений. Мартовские иды / Последнее задание / Ides of March / Ultimate Target [боевик, триллер, криминал, 2000] DVDRip, Mvo [НТВ+]

jons3

23 | 5

1.36 ГБ

В этой теме нет новых непрочитанных сообщений. Эми Джордж / Amy George [драма, 2011] DVDRip-AVC, Avo

jons3

18 | 9

2.4 ГБ

В этой теме нет новых непрочитанных сообщений. Молчание / Silence [драма, история, 2016] DVDScreener, Dvo

jons3

1534 | 353

1.37 ГБ

В этой теме нет новых непрочитанных сообщений. Скрытые фигуры / Hidden Figures [драма, 2016] DVDScreener, Mvo

jons3

51 | 22

1.37 ГБ

В этой теме нет новых непрочитанных сообщений. Скрытые фигуры / Hidden Figures [драма, 2016] DVDScreener, Mvo

jons3

49 | 23

2.03 ГБ




Вы не можете начинать темы
Вы не можете отвечать на сообщения
Вы не можете редактировать свои сообщения
Вы не можете удалять свои сообщения
Вы не можете добавлять вложения

Перейти:  
cron