Начать новую тему Ответить на тему
Статистика раздачи
Размер: 1.35 ГБ | Добавлен: 13 янв 2012, 23:50
Сидеров: 25    Личеров: 4
Автор Сообщение

СообщениеДобавлено: 13 янв 2012, 23:50 

Не в сети
Аватара пользователя
Раздал: 0 байт
Скачал: 0 байт
Ратио: Inf.
Спасибо: 3179 / 43
Сообщения: 23186
Откуда: 9CaraTT.COM
Зарегистрирован: 10 янв 2012, 22:17
Последняя любовь на Земле / Perfect Sense

#77
Перевод: Профессиональный (многоголосый, закадровый)
Субтитры: Отсутствуют
Формат: DVDRip, AVI, XviD, AC3
Страна: Германия, Дания, Швеция, Великобритания
Режиссер: Дэвид МакКензи
Жанр: драма, мелодрама
Продолжительность: 01:28:29
Год выпуска: 2011
В ролях: Юэн МакГрегор, Ева Грин, Конни Нильсен, Стивен Диллэйн, Юэн Бремнер, Дэнис Лоусон, Аластер Маккензи
Описание: Земля столкнулась с небывалым бедствием. В разных странах, на каждом континенте люди в самом буквальном смысле лишаются чувств — каждого из пяти, одного за другим… Майкл и Сьюзан считают свою связь мимолетной, но когда становится ясно, что мир неумолимо приближается к концу, герои понимают — им уже не прожить друг без друга. Но что останется, когда пропадут последние чувства?

Видео: 720x304 (2,35:1), 25 fps, XviD MPEG-4 Visual ~1911 kbps avg, 0.349 bit/pixel
Аудио: 48.000 kHz, AC-3, 6 ch, ~256 kbps avg
Общее
Полное имя: C:\Users\Zimm\Desktop\фильмы\Poslednaya_ljubov_na_zeme.avi
Формат: AVI
Формат/Информация: Audio Video Interleave
Размер файла: 1,35 Гбайт
Продолжительность: 1 ч. 28 м.
Общий поток: 2177 Кбит/сек
Программа кодирования: VirtualDubMod 1.5.10.3 | www.virtualdub-fr.org || (build 2550/release)
Библиотека кодирования: VirtualDubMod build 2550/release

Видео
Идентификатор: 0
Формат: MPEG-4 Visual
Профиль формата: Advanced Simple@L5
Параметр BVOP формата: 4
Параметр QPel формата: Нет
Параметр GMC формата: 3 точки перехода
Параметр матрицы формата: Default (H.263)
Режим смешивания: Сжатый битовый поток
Идентификатор кодека: XVID
Идентификатор кодека/Подсказка: XviD
Продолжительность: 1 ч. 28 м.
Битрейт: 1911 Кбит/сек
Ширина: 720 пикселей
Высота: 304 пикселя
Соотношение сторон: 2,35:1
Частота кадров: 25,000 кадров/сек
Цветовое пространство: YUV
Субдискретизация насыщенности: 4:2:0
Битовая глубина: 8 бит
Тип развёртки: Прогрессивная
Метод сжатия: С потерями
Бит/(Пиксели*Кадры): 0.349
Размер потока: 1,18 Гбайт (88%)
Библиотека кодирования: XviD 61

Аудио
Идентификатор: 1
Формат: AC-3
Формат/Информация: Audio Coding 3
Расширение режима: CM (complete main)
Идентификатор кодека: 2000
Продолжительность: 1 ч. 28 м.
Вид битрейта: Постоянный
Битрейт: 256 Кбит/сек
Каналы: 6 каналов
Расположение каналов: Front: L C R, Side: L R, LFE
Частота: 48,0 КГц
Битовая глубина: 16 бит
Метод сжатия: С потерями
Размер потока: 162 Мбайт (12%)
Выравнивание: Разделение по промежуткам
Продолжительность промежутка: 40мс. (1,00 видеокадр)
Время предзагрузки промежутка: 500мс.









Поделиться:

Торрент:  Добавлен [13 янв 2012, 23:50]

Скачать торрент Магнет ссылка
Скачать торрент

Кем проверен:
 
Размер:  1.35 ГБ
Скачали:  3
Здоровье: 100%
Приватный:  Нет (DHT включён)


Вернуться к началу
 Профиль  
 
Начать новую тему Ответить на тему  [ 1 сообщение ] 
   Похожие торренты   Автор   Торрент   Размер 
В этой теме нет новых непрочитанных сообщений. Любой ценой / Hell or High Water (Дэвид Маккензи) [2016, драма, криминал, WEB-DL 1080p | iTunes] Dub

marya111

22 | 2

3.48 ГБ

В этой теме нет новых непрочитанных сообщений. Любой ценой / Hell or High Water (Дэвид Маккензи) [2016, драма, криминал, WEB-DLRip | iTunes] Dub

marya111

0 | 0

1.46 ГБ

В этой теме нет новых непрочитанных сообщений. Любой ценой / Hell or High Water (Дэвид Маккензи) [2016, драма, криминал, HDRip | iTunes] Dub

marya111

4099 | 402

1.45 ГБ

В этой теме нет новых непрочитанных сообщений. Любой ценой / Hell or High Water (Дэвид Маккензи) [2016, драма, криминал, HDRip | iTunes] Dub

marya111

252 | 36

745.48 МБ

В этой теме нет новых непрочитанных сообщений. Любой ценой / Hell or High Water (Дэвид Маккензи) [2016, Драма, криминал, WEB-DLRip | iTunes] Dub

marya111

0 | 0

1.46 ГБ




Вы не можете начинать темы
Вы не можете отвечать на сообщения
Вы не можете редактировать свои сообщения
Вы не можете удалять свои сообщения
Вы не можете добавлять вложения

Перейти:  
cron