Начать новую тему Ответить на тему
Статистика раздачи
Размер: 2.19 ГБ | Добавлен: 13 янв 2012, 23:51
Сидеров: 10    Личеров: 6
Автор Сообщение

СообщениеДобавлено: 13 янв 2012, 23:51 

Не в сети
Аватара пользователя
Раздал: 0 байт
Скачал: 0 байт
Ратио: Inf.
Спасибо: 3179 / 43
Сообщения: 23186
Откуда: 9CaraTT.COM
Зарегистрирован: 10 янв 2012, 22:17
#77

[b]11 11 11 / 11-11-11[/b]


Перевод: профессиональный (полное дублирование) [лицензия]
Субтитры: отсутствуют
Формат: HDRip-AVC, MKV, H.264, AC3

Страна: США, Испания
Режиссер: Даррен Линн Боусман
Жанр: ужасы, триллер

Продолжительность: 01:32:56
Год выпуска: 2011

В ролях: Тимоти Гиббс, Майкл Лэндис, Дэнис Рафтер, Венди Гленн, Луис Солер, Брендан Прайс, Лоло Херреро, Монтсеррат Альковерро, Кельвин Гилмор, Саломе Хименес

Описание: В центре событий известный писатель по имени Джозеф Крон, потерявший в результате несчастного случая жену и ребенка. Чтобы оправиться от трагедии, он едет в Европу, в Испанию, где живет его брат Самюэль и находящийся при смерти отец Ричард. Но судьба продолжает преследовать Джозефа, и все события оказываются мистическим образом связаны с числом 11.

Джозеф становится одержим этим числом. Проведя расследование, он выясняет, что 11.11.11 произойдет некое событие, информация о котором зашифрована в молитвенных книгах разных религий мира. Вскоре он понимает, что 11.11.11 — это ПРЕДУПРЕЖДЕНИЕ.




Видео: 1280x536 (2.39:1), 25 fps, AVC (x264) High@L3.1 ~2918 kbps avg, 0.17 bit/pixel

Аудио: 48 kHz, AC3 Dolby Digital, 3/2 (L,C,R,l,r) + LFE ch, ~448 kbps avg




Общее
Уникальный идентификатор: 208627612600642713062417781454596743592 (0x9CF4377548AB64FD9CC3F2CD12D421A
Полное имя: D:\11-11-11.2011.x264.HDRip.720p.DUB_[rutracker.in].mkv
Формат: Matroska
Размер файла: 2,19 Гбайт
Продолжительность: 1 ч. 32 м.
Общий поток: 3367 Кбит/сек
Название фильма: Rip by Blo
Дата кодирования: UTC 2011-12-10 22:37:56
Программа кодирования: mkvmerge v3.2.0 ('Beginnings') built on Feb 12 2010 16:46:17
Библиотека кодирования: libebml v0.7.9 + libmatroska v0.8.1

Видео
Идентификатор: 1
Формат: AVC
Формат/Информация: Advanced Video Codec
Профиль формата: High@L3.1
Параметр CABAC формата: Да
Параметр ReFrames формата: 2 кадры
Идентификатор кодека: V_MPEG4/ISO/AVC
Продолжительность: 1 ч. 32 м.
Битрейт: 2918 Кбит/сек
Ширина: 1280 пикс.
Высота: 536 пикс.
Соотношение сторон: 2,35:1
Соотношение сторон в оригинале: 2,35:1
Режим частоты кадров: Переменный
Частота кадров: 25,000 кадр/сек
Цветовое пространство: YUV
Подвыборка цветности: 4:2:0
Битовая глубина: 8 бит
Тип развёртки: Прогрессивная
Бит/(Пиксели*Кадры): 0.170
Размер потока: 1,85 Гбайт (85%)
Заголовок: 11-11-11
Библиотека кодирования: x264 core 112 r1834 a51816a
Настройки программы: cabac=1 / ref=2 / deblock=1:0:0 / analyse=0x3:0x113 / me=hex / subme=6 / psy=1 / psy_rd=1.00:0.00 / mixed_ref=0 / me_range=16 / chroma_me=1 / trellis=0 / 8x8dct=1 / cqm=0 / deadzone=21,11 / fast_pskip=1 / chroma_qp_offset=-2 / threads=4 / sliced_threads=0 / nr=0 / decimate=1 / interlaced=0 / constrained_intra=0 / bframes=3 / b_pyramid=0 / b_adapt=1 / b_bias=0 / direct=3 / weightb=1 / open_gop=0 / weightp=2 / keyint=250 / keyint_min=25 / scenecut=40 / intra_refresh=0 / rc_lookahead=40 / rc=2pass / mbtree=1 / bitrate=2918 / ratetol=1.0 / qcomp=0.60 / qpmin=10 / qpmax=51 / qpstep=4 / cplxblur=20.0 / qblur=0.5 / ip_ratio=1.41 / aq=1:1.00
Язык: English

Аудио
Идентификатор: 2
Формат: AC-3
Формат/Информация: Audio Coding 3
Расширение режима: CM (complete main)
Идентификатор кодека: A_AC3
Продолжительность: 1 ч. 32 м.
Вид битрейта: Постоянный
Битрейт: 448 Кбит/сек
Канал(ы): 6 канала(ов)
Расположение каналов: Front: L C R, Side: L R, LFE
Частота: 48,0 КГц
Битовая глубина: 16 бит
Метод сжатия: С потерями
Размер потока: 298 Мбайт (13%)
Заголовок: Dub
Язык: Russian

















Поделиться:

Торрент:  Добавлен [13 янв 2012, 23:51]

Скачать торрент Магнет ссылка
Скачать торрент

Кем проверен:
 
Размер:  2.19 ГБ
Скачали:  23
Здоровье: 100%
Приватный:  Нет (DHT включён)


Вернуться к началу
 Профиль  
 
Начать новую тему Ответить на тему  [ 1 сообщение ] 
   Похожие торренты   Автор   Торрент   Размер 
В этой теме нет новых непрочитанных сообщений. Подземелье / Underground [ужасы, триллер, 2011] HDRip, Mvo

jons3

132 | 27

1.37 ГБ

В этой теме нет новых непрочитанных сообщений. Нечто / The Thing [ужасы, фантастика, триллер, 2011] HDRip-AVC, Dub

jons3

23 | 7

1.46 ГБ

В этой теме нет новых непрочитанных сообщений. Хлебные крошки / BreadCrumbs [Ужасы, триллер, 2011] HDRip, Dvo

jons3

47 | 14

742.39 МБ

В этой теме нет новых непрочитанных сообщений. Паранормальное явление 3 / Paranormal Activity 3 [ужасы, триллер, 2011] HDRip-AVC, Dub

jons3

0 | 0

745.55 МБ

В этой теме нет новых непрочитанных сообщений. Банкомат / ATM [Ужасы, триллер, 2012] HDRip-AVC, Dub

jons3

0 | 0

743.15 МБ




Вы не можете начинать темы
Вы не можете отвечать на сообщения
Вы не можете редактировать свои сообщения
Вы не можете удалять свои сообщения
Вы не можете добавлять вложения

Перейти:  
cron