Начать новую тему Ответить на тему
Статистика раздачи
Размер: 2.14 ГБ | Добавлен: 13 янв 2012, 23:51
Сидеров: 18    Личеров: 4
Автор Сообщение

СообщениеДобавлено: 13 янв 2012, 23:51 

Не в сети
Аватара пользователя
Раздал: 0 байт
Скачал: 0 байт
Ратио: Inf.
Спасибо: 3179 / 43
Сообщения: 23186
Откуда: 9CaraTT.COM
Зарегистрирован: 10 янв 2012, 22:17
Успеть за 30 минут / 30 Minutes or Less

#77
Перевод: Профессиональный (полное дублирование) [лицензия]
Субтитры: отсутствуют
Формат: HDRip, MKV, H.264, AC3

Страна: США, Германия, Канада
Режиссер: Рубен Фляйшер
Жанр: боевик, комедия, криминал, приключения

Продолжительность: 01:23:02
Год выпуска: 2011

В ролях: Джесси Айзенберг, Азиз Ансари, Дэнни МакБрайд, Ник Свардсон, Дилшэд Вэдсариа, Майкл Пенья, Бьянка Кайлич, Фред Уорд, Сэм Джонстон, Джек Фол

Описание: Ник — простой разносчик пиццы, чья размеренная жизнь буквально в одно мгновенье переворачивается с ног на голову, когда в нее с хитроумным планом врываются два бандита, мечтающих сорвать большой куш. Безбашенная парочка похищает Ника с целью заставить его ограбить банк. Ник понимает, что ему никак не обойтись без помощи своего лучшего друга Чета. Вместе приятели должны обвести вокруг пальца похитителей, не попасться в руки полиции, да еще и разобраться друг с другом — ведь их отношения далеко не безоблачны. На эту практически невыполнимую миссию друзьям отведены считанные часы.







Видео: 1280x536 (2.35:1), 23.976 fps, AVC(x264) High@L4.1, ~2941 kbps avg, 0.20 bit/pixel
Аудио: 48 kHz, AC3 Dolby Digital, 3/2 (L,C,R,l,r) + LFE ch, ~448 kbps avg

Релиз-Группа:

Рип от:TswetkOFF


General
Unique ID: 204634747692122772722358053040360565501 (0x99F33804DD8461A5A3641EA7E5F8AAFD)
Complete name: D:\Films\uspet_za_30_minutes_[rutracker.in].mkv
Format: Matroska
File size: 2.14 GiB
Duration: 1h 23mn
Overall bit rate: 3 389 Kbps
Encoded date: UTC 2011-12-10 00:48:25
Writing application: mkvmerge v4.6.0 ('Still Crazy After All These Years') сборка от Apr1 2011 21:01:49
Writing library: libebml v1.2.0 + libmatroska v1.1.0

Video
ID: 1
Format: AVC
Format/Info: Advanced Video Codec
Format profile: High@L4.1
Format settings, CABAC: Yes
Format settings, ReFrames: 4 frames
Format settings, GOP: M=4, N=16
Codec ID: V_MPEG4/ISO/AVC
Duration: 1h 23mn
Bit rate: 2 941 Kbps
Width: 1 280 pixels
Height: 536 pixels
Display aspect ratio: 2.35:1
Frame rate: 23.976 fps
Color space: YUV
Chroma subsampling: 4:2:0
Bit depth: 8 bits
Scan type: Progressive
Bits/(Pixel*Frame): 0.197
Stream size: 1.84 GiB (86%)
Writing library: x264 core 115 r1937 aa21558
Encoding settings: cabac=1 / ref=3 / deblock=1:0:0 / analyse=0x3:0x113 / me=hex / subme=7 / psy=1 / psy_rd=1.00:0.00 / mixed_ref=1 / me_range=16 / chroma_me=1 / trellis=1 / 8x8dct=1 / cqm=0 / deadzone=21,11 / fast_pskip=1 / chroma_qp_offset=-2 / threads=3 / sliced_threads=0 / nr=0 / decimate=1 / interlaced=0 / bluray_compat=0 / constrained_intra=0 / bframes=3 / b_pyramid=2 / b_adapt=1 / b_bias=0 / direct=1 / weightb=1 / open_gop=0 / weightp=2 / keyint=250 / keyint_min=23 / scenecut=40 / intra_refresh=0 / rc_lookahead=40 / rc=2pass / mbtree=1 / bitrate=3241 / ratetol=1.0 / qcomp=0.60 / qpmin=0 / qpmax=69 / qpstep=4 / cplxblur=20.0 / qblur=0.5 / ip_ratio=1.40 / aq=1:1.00

Audio
ID: 2
Format: AC-3
Format/Info: Audio Coding 3
Mode extension: CM (complete main)
Codec ID: A_AC3
Duration: 1h 23mn
Bit rate mode: Constant
Bit rate: 448 Kbps
Channel(s): 6 channels
Channel positions: Front: L C R, Side: L R, LFE
Sampling rate: 48.0 KHz
Bit depth: 16 bits
Compression mode: Lossy
Stream size: 266 MiB (12%)





















Поделиться:

Торрент:  Добавлен [13 янв 2012, 23:51]

Скачать торрент Магнет ссылка
Скачать торрент

Кем проверен:
 
Размер:  2.14 ГБ
Скачали:  85
Здоровье: 100%
Приватный:  Нет (DHT включён)


Вернуться к началу
 Профиль  
 
Начать новую тему Ответить на тему  [ 1 сообщение ] 
   Похожие торренты   Автор   Торрент   Размер 
В этой теме нет новых непрочитанных сообщений. Успеть за 30 минут / 30 Minutes or Less [боевик, комедия, криминал, 2011] BDRip-HEVC 1080p, Dub

jons3

143 | 30

4.01 ГБ

В этой теме нет новых непрочитанных сообщений. 80 минут / 80 Minutes [Боевик, триллер, криминал, приключения, 2008] BDRip 1080p, Dvo

jons3

9 | 1

8.23 ГБ

В этой теме нет новых непрочитанных сообщений. 88 минут / 88 Minutes [Триллер, драма, криминал, детектив, 2007] BDRip 720p, Mvo

jons3

21 | 3

4.54 ГБ

В этой теме нет новых непрочитанных сообщений. Несколько минут после полуночи / Minutes Past Midnight [Ужасы, триллер, 2016] HDRip, Mvo [GreenРай Studio]

jons3

41 | 5

1.37 ГБ

В этой теме нет новых непрочитанных сообщений. Несколько минут после полуночи / Minutes Past Midnight [Ужасы, триллер, 2016] HDRip 720p, Mvo [GreenРай Studio]

jons3

24 | 4

3.13 ГБ




Вы не можете начинать темы
Вы не можете отвечать на сообщения
Вы не можете редактировать свои сообщения
Вы не можете удалять свои сообщения
Вы не можете добавлять вложения

Перейти:  
cron