Начать новую тему Ответить на тему
Статистика раздачи
Размер: 2.1 ГБ | Добавлен: 13 янв 2012, 23:53
Сидеров: 33    Личеров: 5
Автор Сообщение

СообщениеДобавлено: 13 янв 2012, 23:53 

Не в сети
Аватара пользователя
Раздал: 0 байт
Скачал: 0 байт
Ратио: Inf.
Спасибо: 3179 / 43
Сообщения: 23186
Откуда: 9CaraTT.COM
Зарегистрирован: 10 янв 2012, 22:17
Соломенные псы / Straw Dogs

#77
Перевод: Профессиональный (полное дублирование)[лицензия], cубтитры: отсутствуют
Формат: HDRip-AVC, MKV, H.264, AC3
Страна: США
Режиссер: Род Лури
Жанр: триллер, драма, криминал
Продолжительность: 01:49:43
Год выпуска: 2011

В ролях: Джеймс Марсден, Кейт Босворт, Александр Скарсгард, Джеймс Вудс, Доминик Пурселл, Риз Койро, Билли Луш, Лас Алонсо, Уилла Холлэнд, Уолтон Гоггинс

Описание: Лос-анджелесский журналист вместе с женой переезжает на Юг, где и без того трещащий по швам брак становится причиной форменной катастрофы: селяне третируют новичков, провоцируя насилие.



Видео: 960 x 400 (2:40:1), 23.976 fps, AVC (х264) High@L4.1, ~ 2358 Kbps, 0.256 bit/pixel
Аудио: 48 kHz, AC3 Dolby Digital, 3/2 (L,C,R,l,r) + LFE ch, ~384 kbps avg


Рип: jeenart

General
Unique ID: 235292471056380609414048865376428899228 (0xB103AE7B58FC727A9788482DD6343B9C)
Complete name: F:\Мои релизы\Все релизы 10\solomennie_psy_[rutracker.in].mkv
Format: Matroska
File size: 2.10 GiB
Duration: 1h 49mn
Overall bit rate: 2 744 Kbps
Encoded date: UTC 2011-12-05 10:13:38
Writing application: mkvmerge v4.6.0 ('Still Crazy After All These Years') сборка от Apr1 2011 21:01:49
Writing library: libebml v1.2.0 + libmatroska v1.1.0

Video
ID: 1
Format: AVC
Format/Info: Advanced Video Codec
Format profile: High@L4.1
Format settings, CABAC: Yes
Format settings, ReFrames: 4 frames
Codec ID: V_MPEG4/ISO/AVC
Duration: 1h 49mn
Bit rate: 2 358 Kbps
Width: 960 pixels
Height: 400 pixels
Display aspect ratio: 2.40:1
Frame rate: 23.976 fps
Color space: YUV
Chroma subsampling: 4:2:0
Bit depth: 8 bits
Scan type: Progressive
Bits/(Pixel*Frame): 0.256
Stream size: 1.77 GiB (84%)
Writing library: x264 core 115 r1937 aa21558
Encoding settings: cabac=1 / ref=3 / deblock=1:-1:-1 / analyse=0x3:0x113 / me=hex / subme=7 / psy=1 / psy_rd=1.00:0.10 / mixed_ref=1 / me_range=16 / chroma_me=1 / trellis=1 / 8x8dct=1 / cqm=0 / deadzone=21,11 / fast_pskip=1 / chroma_qp_offset=-3 / threads=6 / sliced_threads=0 / nr=0 / decimate=1 / interlaced=0 / bluray_compat=0 / constrained_intra=0 / bframes=3 / b_pyramid=2 / b_adapt=1 / b_bias=0 / direct=3 / weightb=1 / open_gop=0 / weightp=2 / keyint=250 / keyint_min=23 / scenecut=40 / intra_refresh=0 / rc_lookahead=40 / rc=2pass / mbtree=1 / bitrate=2358 / ratetol=1.0 / qcomp=0.60 / qpmin=0 / qpmax=69 / qpstep=4 / cplxblur=20.0 / qblur=0.5 / ip_ratio=1.40 / aq=1:1.00

Audio
ID: 2
Format: AC-3
Format/Info: Audio Coding 3
Mode extension: CM (complete main)
Codec ID: A_AC3
Duration: 1h 49mn
Bit rate mode: Constant
Bit rate: 384 Kbps
Channel(s): 6 channels
Channel positions: Front: L C R, Side: L R, LFE
Sampling rate: 48.0 KHz
Bit depth: 16 bits
Compression mode: Lossy
Stream size: 301 MiB (14%)

















Поделиться:

Торрент:  Добавлен [13 янв 2012, 23:53]

Скачать торрент Магнет ссылка
Скачать торрент

Кем проверен:
 
Размер:  2.1 ГБ
Скачали:  37
Здоровье: 100%
Приватный:  Нет (DHT включён)


Вернуться к началу
 Профиль  
 
Начать новую тему Ответить на тему  [ 1 сообщение ] 
   Похожие торренты   Автор   Торрент   Размер 
В этой теме нет новых непрочитанных сообщений. Бешеные псы / Reservoir Dogs [триллер, драма, криминал, 1992] BDRemux 1080p, Mvo

jons3

0 | 0

24.42 ГБ

В этой теме нет новых непрочитанных сообщений. Бешеные псы / Reservoir Dogs [триллер, драма, криминал, 1992] WEB-DL 1080p, Mvo [Open Matte]

jons3

27 | 10

10.3 ГБ

В этой теме нет новых непрочитанных сообщений. Охотники за головами / Hodejegerne [триллер, драма, криминал, 2011] HDRip-AVC, Dub

jons3

0 | 0

745.05 МБ

В этой теме нет новых непрочитанных сообщений. Что скрывает ложь / Trespass [Триллер, драма, криминал, 2011] HDRip-AVC, Dub

jons3

0 | 0

746.29 МБ

В этой теме нет новых непрочитанных сообщений. Бешеные псы / Mad Dogs [S01] [драма, комедия, криминал, 2016] WEB-DLRip 1080p, Mvo [NewStudio]

jons3

4 | 1

42.56 ГБ




Вы не можете начинать темы
Вы не можете отвечать на сообщения
Вы не можете редактировать свои сообщения
Вы не можете удалять свои сообщения
Вы не можете добавлять вложения

Перейти:  
cron