Начать новую тему Ответить на тему
Статистика раздачи
Размер: 744.44 МБ | Добавлен: 13 янв 2012, 23:54
Сидеров: 34    Личеров: 5
Автор Сообщение

СообщениеДобавлено: 13 янв 2012, 23:54 

Не в сети
Аватара пользователя
Раздал: 0 байт
Скачал: 0 байт
Ратио: Inf.
Спасибо: 3179 / 43
Сообщения: 23186
Откуда: 9CaraTT.COM
Зарегистрирован: 10 янв 2012, 22:17
[b]Время / In Time[/b]


#77Перевод: Профессиональный (полное дублирование) [Лицензия]
Субтитры: отсутствуют
Формат: DVDRip-AVC, MKV, H.264, MP3

Страна: США

Режиссер: Эндрю Никкол
Жанр: фантастика, триллер, драма, мелодрама, криминал
Продолжительность: 01:44:45
Год выпуска: 2011

В ролях: Джастин Тимберлэйк, Аманда Сайфред, Алекс Петтифер, Киллиан Мёрфи, Оливия Уайлд, Шайло Оствальд, Джонни Галэки, Колин МакГерк, Уилл Харрис, Майкл Уильям Фриман.

Описание: Добро пожаловать в мир, где время стало единственной и самой твердой валютой, где люди генетически запрограммированы так, что в 25 лет перестают стареть. Правда, последующие годы стоят денег. И вот богатые становятся практически бессмертными, а бедные, как всегда, обречены сражаться за жизнь.
Уилл, бунтарь из гетто, несправедливо обвинен в убийстве с целью грабежа времени и вынужден, захватив заложницу, пуститься в бега. Так, ежеминутно рискуя жизнью, эти двое становятся грозным оружием в борьбе с системой. Но вот вопрос: кто кого? А может быть, в дело вмешается третья сила?..




Видео: 818x352 (2.35:1), 25 fps, AVC MPEG-4 High@L4.1, ~867 kbps avg, 0.121 bit/pixel
Аудио: 48 kHz, MPEG Layer 3, 2/0 (L, R) ch, ~128 kbps avg

Релиз группы

Рип от: __


Общее
Уникальный идентификатор: 222520949768266481353650427600348047182 (0xA767F9DDD65C2B7085FEAE267C5EE74E)
Полное имя: D:\Мои рипы\In.Time.2011.D.DVDRip.mkv
Формат: Matroska
Размер файла: 744 Мбайт
Продолжительность: 1 ч. 44 м.
Общий поток: 994 Кбит/сек
Название фильма: In.Time.S.I.D
Дата кодирования: UTC 2011-12-02 23:09:20
Программа кодирования: mkvmerge v2.9.0 ('Moanin'') built on May 22 2009 17:46:31
Библиотека кодирования: libebml v0.7.7 + libmatroska v0.8.1

Видео
Идентификатор: 1
Формат: AVC
Формат/Информация: Advanced Video Codec
Профиль формата: High@L4.1
Параметр CABAC формата: Да
Параметр ReFrames формата: 8 кадры
Идентификатор кодека: V_MPEG4/ISO/AVC
Продолжительность: 1 ч. 44 м.
Битрейт: 867 Кбит/сек
Ширина: 816 пикс.
Высота: 352 пикс.
Соотношение сторон: 2,35:1
Частота кадров: 25,000 кадр/сек
Цветовое пространство: YUV
Подвыборка цветности: 4:2:0
Битовая глубина: 8 бит
Тип развёртки: Прогрессивная
Бит/(Пиксели*Кадры): 0.121
Размер потока: 634 Мбайт (85%)
Заголовок: http://rutracker.in/
Библиотека кодирования: x264 core 119 r2106 07efeb4
Настройки программы: cabac=1 / ref=8 / deblock=1:-1:-1 / analyse=0x3:0x111 / me=umh / subme=0 / psy=1 / psy_rd=1.00:0.10 / mixed_ref=1 / me_range=16 / chroma_me=1 / trellis=2 / 8x8dct=1 / cqm=0 / deadzone=21,11 / fast_pskip=0 / chroma_qp_offset=-1 / threads=6 / sliced_threads=0 / nr=0 / decimate=1 / interlaced=0 / bluray_compat=0 / constrained_intra=0 / bframes=8 / b_pyramid=2 / b_adapt=2 / b_bias=0 / direct=1 / weightb=1 / open_gop=0 / weightp=2 / keyint=250 / keyint_min=25 / scenecut=40 / intra_refresh=0 / rc_lookahead=50 / rc=abr / mbtree=1 / bitrate=867 / ratetol=1.0 / qcomp=0.60 / qpmin=0 / qpmax=69 / qpstep=4 / ip_ratio=1.40 / aq=1:1.00
Язык: English

Аудио
Идентификатор: 2
Формат: MPEG Audio
Версия формата: Version 1
Профиль формата: Layer 3
Режим: Joint stereo
Расширение режима: MS Stereo
Идентификатор кодека: A_MPEG/L3
Идентификатор кодека/Подсказка: MP3
Продолжительность: 1 ч. 44 м.
Вид битрейта: Постоянный
Битрейт: 128 Кбит/сек
Канал(ы): 2 канала(ов)
Частота: 48,0 КГц
Метод сжатия: С потерями
Размер потока: 95,9 Мбайт (13%)
Заголовок: Дубляж
Библиотека кодирования: LAME3.99
Настройки программы: -m j -V 4 -q 2 -lowpass 17 -b 128
Язык: Russian








Поделиться:

Торрент:  Добавлен [13 янв 2012, 23:54]

Скачать торрент Магнет ссылка
Скачать торрент

Кем проверен:
 
Размер:  744.44 МБ
Скачали:  153
Здоровье: 100%
Приватный:  Нет (DHT включён)


Вернуться к началу
 Профиль  
 
Начать новую тему Ответить на тему  [ 1 сообщение ] 
   Похожие торренты   Автор   Торрент   Размер 
В этой теме нет новых непрочитанных сообщений. Путешествие в машине времени / Time After Time [Фантастика, триллер, мелодрама, 1979] BDRip 1080p, Mvo

jons3

5 | 2

11.82 ГБ

В этой теме нет новых непрочитанных сообщений. Путешествие в машине времени / Time After Time [фантастика, триллер, мелодрама, 1979] BDRemux 1080p, Mvo

jons3

5 | 1

31.64 ГБ

В этой теме нет новых непрочитанных сообщений. Путешествие в машине времени / Time After Time [фантастика, триллер, мелодрама, 1979] BDRip 720p, Mvo

jons3

25 | 4

4.29 ГБ

В этой теме нет новых непрочитанных сообщений. Времена бабочек / In the Time of the Butterflies [триллер, драма, мелодрама, криминал, история, 2001] HDTV 1080i, Dvo

jons3

11 | 2

4.26 ГБ

В этой теме нет новых непрочитанных сообщений. Время / In Time [Фантастика, триллер, драма, 2011] BDRip 720p, Dub

jons3

18 | 0

5.4 ГБ




Вы не можете начинать темы
Вы не можете отвечать на сообщения
Вы не можете редактировать свои сообщения
Вы не можете удалять свои сообщения
Вы не можете добавлять вложения

Перейти:  
cron