Начать новую тему Ответить на тему
Статистика раздачи
Размер: 1.45 ГБ | Добавлен: 13 янв 2012, 23:58
Сидеров: 33    Личеров: 7
Автор Сообщение

СообщениеДобавлено: 13 янв 2012, 23:58 

Не в сети
Аватара пользователя
Раздал: 0 байт
Скачал: 0 байт
Ратио: Inf.
Спасибо: 3179 / 43
Сообщения: 23186
Откуда: 9CaraTT.COM
Зарегистрирован: 10 янв 2012, 22:17
Опасный квартал / The Son of No One

#77
Перевод: Профессиональный (полное дублирование), cубтитры: отсутствуют
Формат: HDRip-AVC, MKV, H.264, AC3
Страна: США
Режиссер: Дито Монтиель
Жанр: триллер, драма, криминал
Продолжительность: 01:33:36
Год выпуска: 2011

В ролях: Ченнинг Татум, Трэйси Морган, Кэти Холмс, Рэй Лиотта, Жюльет Бинош, Аль Пачино, Джеймс Рэнсон, Урсула Паркер, Брайан Гилберт, Джэйк Черри

Описание: Главный герой — молодой полицейский, приписанный к участку в районе, где в основном проживает рабочий класс. Герой вырос в этом районе, и теперь, когда он вернулся сюда стражем закона, на поверхности оказался некий секрет, который может уничтожить как семью копа, так и его самого.



Видео: 960 x 408 (2:35:1), 23.976 fps, AVC (х264) High@L4.1, ~ 1835 Kbps, 0.195 bit/pixel
Аудио: 48 kHz, AC3 Dolby Digital, 3/2 (L,C,R,l,r) + LFE ch, ~384 kbps avg


Рип: jeenart

General
Unique ID: 248233826367089391146593594864667113035 (0xBAC0188F9736EA408EC02A68F762B64B)
Complete name: F:\Мои релизы\Все релизы 10\opasnyi_kvartal_[rutracker.in].mkv
Format: Matroska
File size: 1.45 GiB
Duration: 1h 33mn
Overall bit rate: 2 219 Kbps
Encoded date: UTC 2011-11-18 17:37:39
Writing application: mkvmerge v4.6.0 ('Still Crazy After All These Years') сборка от Apr1 2011 21:01:49
Writing library: libebml v1.2.0 + libmatroska v1.1.0

Video
ID: 1
Format: AVC
Format/Info: Advanced Video Codec
Format profile: High@L4.1
Format settings, CABAC: Yes
Format settings, ReFrames: 4 frames
Codec ID: V_MPEG4/ISO/AVC
Duration: 1h 33mn
Bit rate: 1 835 Kbps
Width: 960 pixels
Height: 408 pixels
Display aspect ratio: 2.35:1
Frame rate: 23.976 fps
Color space: YUV
Chroma subsampling: 4:2:0
Bit depth: 8 bits
Scan type: Progressive
Bits/(Pixel*Frame): 0.195
Stream size: 1.17 GiB (81%)
Writing library: x264 core 115 r1937 aa21558
Encoding settings: cabac=1 / ref=3 / deblock=1:-1:-1 / analyse=0x3:0x113 / me=hex / subme=7 / psy=1 / psy_rd=1.00:0.10 / mixed_ref=1 / me_range=16 / chroma_me=1 / trellis=1 / 8x8dct=1 / cqm=0 / deadzone=21,11 / fast_pskip=1 / chroma_qp_offset=-3 / threads=6 / sliced_threads=0 / nr=0 / decimate=1 / interlaced=0 / bluray_compat=0 / constrained_intra=0 / bframes=3 / b_pyramid=2 / b_adapt=1 / b_bias=0 / direct=3 / weightb=1 / open_gop=0 / weightp=2 / keyint=250 / keyint_min=23 / scenecut=40 / intra_refresh=0 / rc_lookahead=40 / rc=2pass / mbtree=1 / bitrate=1835 / ratetol=1.0 / qcomp=0.60 / qpmin=0 / qpmax=69 / qpstep=4 / cplxblur=20.0 / qblur=0.5 / ip_ratio=1.40 / aq=1:1.00

Audio
ID: 2
Format: AC-3
Format/Info: Audio Coding 3
Mode extension: CM (complete main)
Codec ID: A_AC3
Duration: 1h 33mn
Bit rate mode: Constant
Bit rate: 384 Kbps
Channel(s): 6 channels
Channel positions: Front: L C R, Side: L R, LFE
Sampling rate: 48.0 KHz
Bit depth: 16 bits
Compression mode: Lossy
Stream size: 258 MiB (17%)












Поделиться:

Торрент:  Добавлен [13 янв 2012, 23:58]

Скачать торрент Магнет ссылка
Скачать торрент

Кем проверен:
 
Размер:  1.45 ГБ
Скачали:  109
Здоровье: 100%
Приватный:  Нет (DHT включён)


Вернуться к началу
 Профиль  
 
Начать новую тему Ответить на тему  [ 1 сообщение ] 
   Похожие торренты   Автор   Торрент   Размер 
В этой теме нет новых непрочитанных сообщений. Война / Man Down (Дито Монтиель) [Триллер, драма, 2016] HDRip-AVC, Dub+Sub [iTunes]

jons3

427 | 131

1.38 ГБ

В этой теме нет новых непрочитанных сообщений. Китайский квартал / Chinatown [триллер, драма, криминал, 1974] BDRip 1080p, Mvo

jons3

30 | 6

7.95 ГБ

В этой теме нет новых непрочитанных сообщений. Опасный Бангкок / Bangkok Dangerous [Криминал, триллер, детектив, 2008] BDRemux 1080p, Dub

jons3

0 | 0

27.08 ГБ

В этой теме нет новых непрочитанных сообщений. Китайский квартал / Chinatown [триллер, драма, детектив, 1974] BDRip-AVC, Mvo

jons3

15 | 11

2.44 ГБ

В этой теме нет новых непрочитанных сообщений. Китайский квартал / Chinatown [триллер, драма, детектив, 1974 НDRip, Mvo

jons3

17 | 7

1.46 ГБ




Вы не можете начинать темы
Вы не можете отвечать на сообщения
Вы не можете редактировать свои сообщения
Вы не можете удалять свои сообщения
Вы не можете добавлять вложения

Перейти:  
cron