Начать новую тему Ответить на тему
Статистика раздачи
Размер: 2.18 ГБ | Добавлен: 13 янв 2012, 23:58
Сидеров: 41    Личеров: 8
Автор Сообщение

СообщениеДобавлено: 13 янв 2012, 23:58 

Не в сети
Аватара пользователя
Раздал: 0 байт
Скачал: 0 байт
Ратио: Inf.
Спасибо: 3179 / 43
Сообщения: 23186
Откуда: 9CaraTT.COM
Зарегистрирован: 10 янв 2012, 22:17
Вой: Перерождение / The Howling: Reborn

#77
Перевод: Профессиональный (многоголосый, закадровый), cубтитры: есть
Субтитры: Русские
Формат: HDRip-AVC, MKV, H.264, AC3
Страна: США
Режиссер: Джо Нимзики / Joe Nimziki
Жанр: ужасы, триллер
Продолжительность: 01:32:00
Год выпуска: 2011
В ролях: Лэндон Либуарон, Ивана Миличевич, Линдси Шоу, Нильс Шнайдер, Эрин Симс, Эрин Агостино, Kristian Hodko, Шон Меркадо...
Описание: Накануне окончания средней школы обыкновенному парню Уиллу Кидману все-таки удается обратить на себя внимание красавицы Элины Уинтер. Молодые люди счастливы, но внезапно открывается страшная тайна прошлого Уилла — близится час, когда ему предстоит стать оборотнем. Не желая смириться с судьбой, молодые люди нарушают древний мистический цикл и теперь за ними начинает охотиться целая армия безжалостных демонических тварей. Тем временем сдерживать возрастающую жажду крови Уиллу становится все труднее...

[/field]

Видео: 1024 x 576 (1:78:1), 23.976 fps, AVC (х264) High@L4.1, ~ 2552 Kbps, 0.180 bit/pixel
Аудио1: Русский48 kHz, AC3 Dolby Digital, 3/2 (L,C,R,l,r) + LFE ch, ~384 kbps avg(Профессиональный многоголосый)
Аудио2: Английский48 kHz, AC3 Dolby Digital, 3/2 (L,C,R,l,r) + LFE ch, ~384 kbps avg[Оригинал]



Общее
Уникальный идентификатор: 236375640177255073324645697418708089406 (0xB1D44AD7B803E924B34C5603B7AB7A3E)
Полное имя: E:\ФИЛЬМАКИ\надо посмотреть\C нета\Take.Me.Home.Tonight.2011.BDRip-AVC\Voy.pererozhdenie.2011.P.HDRip-AVC.mkv
Формат: Matroska
Версия формата: Version 2
Размер файла: 2,18 Гбайт
Продолжительность: 1 ч. 32 м.
Общий поток: 3383 Кбит/сек
Название фильма: Voy.pererozhdenie.2011.P.HDRip-AVC
Дата кодирования: UTC 2011-11-17 16:41:43
Программа кодирования: mkvmerge v5.0.1 ('Es ist Sommer') built on Oct9 2011 11:55:43
Библиотека кодирования: libebml v1.2.2 + libmatroska v1.3.0

Видео
Идентификатор: 1
Формат: AVC
Формат/Информация: Advanced Video Codec
Профиль формата: High@L4.1
Параметр CABAC формата: Да
Параметр ReFrames формата: 11 кадров
Идентификатор кодека: V_MPEG4/ISO/AVC
Продолжительность: 1 ч. 32 м.
Битрейт: 2552 Кбит/сек
Ширина: 1024 пикс.
Высота: 576 пикс.
Соотношение сторон: 16:9
Частота кадров: 23,976 кадр/сек
Цветовое пространство: YUV
Подвыборка цветности: 4:2:0
Битовая глубина: 8 бит
Тип развёртки: Прогрессивная
Бит/(Пиксели*Кадры): 0.180
Размер потока: 1,60 Гбайт (73%)
Заголовок: Источник BDRip-AVC 1080p
Библиотека кодирования: x264 core 114 r1913 5fd3dce
Настройки программы: cabac=1 / ref=11 / deblock=1:-2:-1 / analyse=0x3:0x113 / me=umh / subme=9 / psy=1 / psy_rd=1.00:0.10 / mixed_ref=1 / me_range=32 / chroma_me=1 / trellis=2 / 8x8dct=1 / cqm=0 / deadzone=21,11 / fast_pskip=1 / chroma_qp_offset=-3 / threads=9 / sliced_threads=0 / nr=0 / decimate=1 / interlaced=0 / constrained_intra=0 / bframes=10 / b_pyramid=2 / b_adapt=2 / b_bias=0 / direct=3 / weightb=1 / open_gop=0 / weightp=0 / keyint=250 / keyint_min=23 / scenecut=40 / intra_refresh=0 / rc_lookahead=80 / rc=2pass / mbtree=1 / bitrate=2552 / ratetol=1.0 / qcomp=0.60 / qpmin=0 / qpmax=69 / qpstep=4 / cplxblur=20.0 / qblur=0.5 / ip_ratio=1.40 / aq=2:0.90
Язык: English

Аудио #1
Идентификатор: 2
Формат: AC-3
Формат/Информация: Audio Coding 3
Расширение режима: CM (complete main)
Идентификатор кодека: A_AC3
Продолжительность: 1 ч. 32 м.
Вид битрейта: Постоянный
Битрейт: 384 Кбит/сек
Каналы: 6 каналов
Расположение каналов: Front: L C R, Side: L R, LFE
Частота: 48,0 КГц
Битовая глубина: 16 бит
Метод сжатия: С потерями
Размер потока: 253 Мбайт (11%)
Заголовок: Источник BDRip-AVC 1080p

Аудио #2
Идентификатор: 3
Формат: AC-3
Формат/Информация: Audio Coding 3
Расширение режима: CM (complete main)
Идентификатор кодека: A_AC3
Продолжительность: 1 ч. 32 м.
Вид битрейта: Постоянный
Битрейт: 448 Кбит/сек
Каналы: 6 каналов
Расположение каналов: Front: L C R, Side: L R, LFE
Частота: 48,0 КГц
Битовая глубина: 16 бит
Метод сжатия: С потерями
Размер потока: 295 Мбайт (13%)
Заголовок: Источник BDRip-AVC 1080p

Текст
Идентификатор: 4
Формат: UTF-8
Идентификатор кодека: S_TEXT/UTF8
Идентификатор кодека/Информация: UTF-8 Plain Text
Заголовок: Источник Blu-ray







Поделиться:

Торрент:  Добавлен [13 янв 2012, 23:58]

Скачать торрент Магнет ссылка
Скачать торрент

Кем проверен:
 
Размер:  2.18 ГБ
Скачали:  280
Здоровье: 100%
Приватный:  Нет (DHT включён)


Вернуться к началу
 Профиль  
 
Начать новую тему Ответить на тему  [ 1 сообщение ] 
   Похожие торренты   Автор   Торрент   Размер 
В этой теме нет новых непрочитанных сообщений. Перерождение / Jie ma you xi / Reborn [Kомедия, боевик, криминал, 2018] BDRip 1080p, Dvo

jons3

15 | 6

9.04 ГБ

В этой теме нет новых непрочитанных сообщений. Омен: Перерождение / The Prodigy [Ужасы, триллер, 2019] WEB-DLRip, Dub [iTunes]

jons3

20 | 0

1.42 ГБ

В этой теме нет новых непрочитанных сообщений. Омен: Перерождение / The Prodigy [Ужасы, триллер, 2019] WEB-DL 1080p, Dub [iTunes]

jons3

5703 | 2020

4.71 ГБ

В этой теме нет новых непрочитанных сообщений. Омен: Перерождение / The Prodigy [Ужасы, триллер, 2019] BDRip, Dub [iTunes]

jons3

0 | 4

2.06 ГБ

В этой теме нет новых непрочитанных сообщений. Омен: Перерождение / The Prodigy [Ужасы, триллер, 2019] BDRip, Dub [iTunes]

jons3

0 | 0

1.42 ГБ




Вы не можете начинать темы
Вы не можете отвечать на сообщения
Вы не можете редактировать свои сообщения
Вы не можете удалять свои сообщения
Вы не можете добавлять вложения

Перейти:  
cron