Начать новую тему Ответить на тему
Статистика раздачи
Размер: 1.37 ГБ | Добавлен: 14 янв 2012, 00:01
Сидеров: 51    Личеров: 9
Автор Сообщение

СообщениеДобавлено: 14 янв 2012, 00:01 

Не в сети
Аватара пользователя
Раздал: 0 байт
Скачал: 0 байт
Ратио: Inf.
Спасибо: 3179 / 43
Сообщения: 23186
Откуда: 9CaraTT.COM
Зарегистрирован: 10 янв 2012, 22:17
[b]Кровавый Санта / Дед отмороз / Sint[/b]

#77Перевод: Любительский (двухголосый), cубтитры:отсутствуют

Формат: HDRip, AVI, XviD, MP3

Страна: Нидерланды

Режиссер: Дик Мас

Жанр: ужасы, комедия

Продолжительность: 01:27:49

Год выпуска: 2010

В ролях: Хуб Стапель, Эгберт Ян Веебер, Каро Ленссен, Фредерик Бром, Эша Тахихату, Синтия Абма, Терренс Синклер, Кис Бут

Описание: Святой Николас (прообраз Санта Клауса и Деда Мороза) — вовсе не добросердечный друг детей, как думают люди. На самом деле это кровожадный убийца, который открывает охоту на детей при свете луны в ночь на 5 декабря.

____[/field]

Видео: 720x304 (2.37:1), 24.000 fps, XviD build 58 ~2093 kbps avg, 0.40 bit/pixel
Аудио: 48 kHz, MPEG Layer 3, 2 ch, ~128.00 kbps avg

Доп. информация: Премьера (РФ) 9 февраля 2012, «Cinema Prestige»

General
Complete name: E:\sint_[rutracker.in].avi
Format: AVI
Format/Info: Audio Video Interleave
File size: 1.37 GiB
Duration: 1h 27mn
Overall bit rate: 2 231 Kbps
Writing application: VirtualDubMod 1.5.10.3 | (build 2550/release)
Writing library: VirtualDubMod build 2550/release

Video
ID: 0
Format: MPEG-4 Visual
Format profile: Advanced Simple@L5
Format settings, BVOP: 1
Format settings, QPel: No
Format settings, GMC: No warppoints
Format settings, Matrix: Default (MPEG)
Codec ID: XVID
Codec ID/Hint: XviD
Duration: 1h 27mn
Bit rate: 2 093 Kbps
Width: 720 pixels
Height: 304 pixels
Display aspect ratio: 2.35:1
Frame rate: 24.000 fps
Color space: YUV
Chroma subsampling: 4:2:0
Bit depth: 8 bits
Scan type: Progressive
Compression mode: Lossy
Bits/(Pixel*Frame): 0.398
Stream size: 1.28 GiB (94%)
Writing library: XviD 58

Audio
ID: 1
Format: MPEG Audio
Format version: Version 1
Format profile: Layer 3
Mode: Joint stereo
Mode extension: MS Stereo
Codec ID: 55
Codec ID/Hint: MP3
Duration: 1h 27mn
Bit rate mode: Constant
Bit rate: 128 Kbps
Channel(s): 2 channels
Sampling rate: 48.0 KHz
Compression mode: Lossy
Stream size: 80.4 MiB (6%)
Alignment: Aligned on interleaves
Interleave, duration: 42 ms (1.00 video frame)
Interleave, preload duration: 504 ms

























Поделиться:

Торрент:  Добавлен [14 янв 2012, 00:01]

Скачать торрент Магнет ссылка
Скачать торрент

Кем проверен:
 
Размер:  1.37 ГБ
Скачали:  298
Здоровье: 100%
Приватный:  Нет (DHT включён)


Вернуться к началу
 Профиль  
 
Начать новую тему Ответить на тему  [ 1 сообщение ] 
   Похожие торренты   Автор   Торрент   Размер 
В этой теме нет новых непрочитанных сообщений. Кровавый Санта / Sint [ужасы, 2010] HDRip-AVC, Dub

jons3

75 | 9

745.74 МБ

В этой теме нет новых непрочитанных сообщений. Кровавый Санта / Sint [ужасы, 2010] BDRip 1080p, Dub

jons3

31 | 10

9.65 ГБ

В этой теме нет новых непрочитанных сообщений. Неистовый Санта / All Through the House (ужасы, 2015) HDRip | L1

marya111

31 | 5

1.46 ГБ

В этой теме нет новых непрочитанных сообщений. Неистовый Санта / All Through the House [Ужасы, 2015] HDRip, Avo

jons3

89 | 17

1.23 ГБ

В этой теме нет новых непрочитанных сообщений. Кровавый пир / Blood Feast [ужасы, 2016] HDRip, Mvo

jons3

0 | 0

1.37 ГБ




Вы не можете начинать темы
Вы не можете отвечать на сообщения
Вы не можете редактировать свои сообщения
Вы не можете удалять свои сообщения
Вы не можете добавлять вложения

Перейти:  
cron