Начать новую тему Ответить на тему
Статистика раздачи
Размер: 1.45 ГБ | Добавлен: 14 янв 2012, 00:03
Сидеров: 650    Личеров: 15
Автор Сообщение

СообщениеДобавлено: 14 янв 2012, 00:03 

Не в сети
Аватара пользователя
Раздал: 0 байт
Скачал: 0 байт
Ратио: Inf.
Спасибо: 3179 / 43
Сообщения: 23186
Откуда: 9CaraTT.COM
Зарегистрирован: 10 янв 2012, 22:17
Успеть за 30 минут / 30 Minutes or Less

#77
Перевод: Профессиональный (полное дублирование), cубтитры: отсутствуют
Формат: DVDRip-AVC, MKV, H.264, AC3
Страна: США, Германия, Канада
Режиссер: Рубен Фляйшер
Жанр: боевик, комедия, криминал, приключения
Продолжительность: 01:19:42
Год выпуска: 2011

В ролях: Джесси Айзенберг, Азиз Ансари, Дэнни МакБрайд, Ник Свардсон, Дилшэд Вэдсариа, Майкл Пенья, Бьянка Кайлич, Фред Уорд, Сэм Джонстон, Джек Фол

Описание: Ник — простой разносчик пиццы, чья размеренная жизнь буквально в одно мгновенье переворачивается с ног на голову, когда в нее с хитроумным планом врываются два бандита, мечтающих сорвать большой куш. Безбашенная парочка похищает Ника с целью заставить его ограбить банк. Ник понимает, что ему никак не обойтись без помощи своего лучшего друга Чета. Вместе приятели должны обвести вокруг пальца похитителей, не попасться в руки полиции, да еще и разобраться друг с другом — ведь их отношения далеко не безоблачны. На эту практически невыполнимую миссию друзьям отведены считанные часы.



Видео: 928 x 384 (2:40:1), 25.000 fps, AVC (х264) High@L4.1, ~ 2226 Kbps, 0.250 bit/pixel
Аудио: 48 kHz, AC3 Dolby Digital, 3/2 (L,C,R,l,r) + LFE ch, ~384 kbps avg


Рип: jeenart

General
Unique ID: 178162349844111792438088868226729063163 (0x8608D20930733507BC101E5A811932FB)
Complete name: F:\Мои релизы\Все релизы 10\uspet_za_30_minut_[rutracker.in].mkv
Format: Matroska
File size: 1.45 GiB
Duration: 1h 19mn
Overall bit rate: 2 612 Kbps
Encoded date: UTC 2011-10-25 23:29:33
Writing application: mkvmerge v4.6.0 ('Still Crazy After All These Years') сборка от Apr1 2011 21:01:49
Writing library: libebml v1.2.0 + libmatroska v1.1.0

Video
ID: 1
Format: AVC
Format/Info: Advanced Video Codec
Format profile: High@L4.1
Format settings, CABAC: Yes
Format settings, ReFrames: 4 frames
Format settings, GOP: M=4, N=32
Codec ID: V_MPEG4/ISO/AVC
Duration: 1h 19mn
Bit rate: 2 226 Kbps
Width: 928 pixels
Height: 384 pixels
Display aspect ratio: 2.40:1
Frame rate: 25.000 fps
Color space: YUV
Chroma subsampling: 4:2:0
Bit depth: 8 bits
Scan type: Progressive
Bits/(Pixel*Frame): 0.250
Stream size: 1.21 GiB (83%)
Writing library: x264 core 115 r1937 aa21558
Encoding settings: cabac=1 / ref=3 / deblock=1:-1:-1 / analyse=0x3:0x113 / me=hex / subme=7 / psy=1 / psy_rd=1.00:0.10 / mixed_ref=1 / me_range=16 / chroma_me=1 / trellis=1 / 8x8dct=1 / cqm=0 / deadzone=21,11 / fast_pskip=1 / chroma_qp_offset=-3 / threads=6 / sliced_threads=0 / nr=0 / decimate=1 / interlaced=0 / bluray_compat=0 / constrained_intra=0 / bframes=3 / b_pyramid=2 / b_adapt=1 / b_bias=0 / direct=3 / weightb=1 / open_gop=0 / weightp=2 / keyint=250 / keyint_min=25 / scenecut=40 / intra_refresh=0 / rc_lookahead=40 / rc=2pass / mbtree=1 / bitrate=2226 / ratetol=1.0 / qcomp=0.60 / qpmin=0 / qpmax=69 / qpstep=4 / cplxblur=20.0 / qblur=0.5 / ip_ratio=1.40 / aq=1:1.00

Audio
ID: 2
Format: AC-3
Format/Info: Audio Coding 3
Mode extension: CM (complete main)
Codec ID: A_AC3
Duration: 1h 19mn
Bit rate mode: Constant
Bit rate: 384 Kbps
Channel(s): 6 channels
Channel positions: Front: L C R, Side: L R, LFE
Sampling rate: 48.0 KHz
Bit depth: 16 bits
Compression mode: Lossy
Stream size: 219 MiB (15%)













Поделиться:

Торрент:  Добавлен [14 янв 2012, 00:03]

Скачать торрент Магнет ссылка
Скачать торрент

Кем проверен:
 
Размер:  1.45 ГБ
Скачали:  683
Здоровье: 100%
Приватный:  Нет (DHT включён)


Вернуться к началу
 Профиль  
 
Начать новую тему Ответить на тему  [ 1 сообщение ] 
   Похожие торренты   Автор   Торрент   Размер 
В этой теме нет новых непрочитанных сообщений. Успеть за 30 минут / 30 Minutes or Less [боевик, комедия, криминал, 2011] BDRip-HEVC 1080p, Dub

jons3

143 | 30

4.01 ГБ

В этой теме нет новых непрочитанных сообщений. 80 минут / 80 Minutes [Боевик, триллер, криминал, приключения, 2008] BDRip 1080p, Dvo

jons3

9 | 1

8.23 ГБ

В этой теме нет новых непрочитанных сообщений. 88 минут / 88 Minutes [Триллер, драма, криминал, детектив, 2007] BDRip 720p, Mvo

jons3

21 | 3

4.54 ГБ

В этой теме нет новых непрочитанных сообщений. Успеть до полуночи / Midnight Run [криминал, приключения, комедия, 1988] BDRip-AVC, Mvo

jons3

132 | 42

2.18 ГБ

В этой теме нет новых непрочитанных сообщений. Несколько минут после полуночи / Minutes Past Midnight [Ужасы, Триллер, 2016] BDRip 1080p, Avo

jons3

63 | 26

8.09 ГБ




Вы не можете начинать темы
Вы не можете отвечать на сообщения
Вы не можете редактировать свои сообщения
Вы не можете удалять свои сообщения
Вы не можете добавлять вложения

Перейти:  
cron