Начать новую тему Ответить на тему
Статистика раздачи
Размер: 698.17 МБ | Добавлен: 13 янв 2012, 22:43
Сидеров: 67    Личеров: 8
Автор Сообщение

СообщениеДобавлено: 13 янв 2012, 22:43 

Не в сети
Аватара пользователя
Раздал: 0 байт
Скачал: 0 байт
Ратио: Inf.
Спасибо: 3179 / 43
Сообщения: 23186
Откуда: 9CaraTT.COM
Зарегистрирован: 10 янв 2012, 22:17
[b]Маппеты / The Muppets[/b]

#77
Перевод: Любительский (одноголосый)
Субтитры: Отсутствуют
Формат: TeleSynch, AVI, XviD, MP3
Страна: США
Режиссер: Джеймс Бобин
Жанр: комедия, мюзикл, семейный
Продолжительность: 01:39:03
Год выпуска: 2011
В ролях: Джейсон Сигел, Эми Адамс, Джек Блэк, Зак Галифианакис, Кен Жонг, Эмили Блант, Вупи Голдберг, Селена Гомес, Крис Купер, Эрик Джейкобсон, Дэйв Гольц, Билл Барретта
Описание: Сюжет объединяет потрепанных кукол для финального шоу, которое призвано спасти киностудию от разорения.

[/field]

Видео: 640x352 (4:2:0), 24 fps, XviD MPEG-4 Visual ~848 kbps avg, 0.157 bit/pixel
Аудио: 44.1 kHz, MPEG Layer 3, 2 ch, ~128.00 kbps avg




Общее
Полное имя: mapets.avi
Формат: AVI
Формат/Информация: Audio Video Interleave
Размер файла: 698 Мбайт
Продолжительность: 1 ч. 39 м.
Общий поток: 985 Кбит/сек
Программа кодирования: VirtualDubMod 1.5.10.2 (build 2540/release)
Библиотека кодирования: VirtualDubMod build 2540/release

Видео
Идентификатор: 0
Формат: MPEG-4 Visual
Профиль формата: Advanced Simple@L5
Параметр BVOP формата: 1
Параметр QPel формата: Нет
Параметр GMC формата: Без точки перехода
Параметр матрицы формата: Default (MPEG)
Идентификатор кодека: XVID
Идентификатор кодека/Подсказка: XviD
Продолжительность: 1 ч. 39 м.
Битрейт: 848 Кбит/сек
Ширина: 640 пикселей
Высота: 352 пикселя
Соотношение сторон: 16:9
Частота кадров: 24,000 кадра/сек
Цветовое пространство: YUV
Субдискретизация насыщенности: 4:2:0
Битовая глубина: 8 бит
Тип развёртки: Прогрессивная
Метод сжатия: С потерями
Бит/(Пиксели*Кадры): 0.157
Размер потока: 601 Мбайт (86%)
Библиотека кодирования: XviD 1.1.2 (UTC 2006-11-01)

Аудио
Идентификатор: 1
Формат: MPEG Audio
Версия формата: Version 1
Профиль формата: Layer 3
Режим: Joint stereo
Расширение режима: MS Stereo
Идентификатор кодека: 55
Идентификатор кодека/Подсказка: MP3
Продолжительность: 1 ч. 39 м.
Вид битрейта: Постоянный
Битрейт: 128 Кбит/сек
Каналы: 2 канала
Частота: 44,1 КГц
Метод сжатия: С потерями
Размер потока: 90,7 Мбайт (13%)
Выравнивание: Разделение по промежуткам
Продолжительность промежутка: 42мс. (1,00 видеокадр)
Время предзагрузки промежутка: 500мс.












Поделиться:

Торрент:  Добавлен [13 янв 2012, 22:43]

Скачать торрент Магнет ссылка
Скачать торрент

Кем проверен:
 
Размер:  698.17 МБ
Скачали:  572
Здоровье: 100%
Приватный:  Нет (DHT включён)


Вернуться к началу
 Профиль  
 
Начать новую тему Ответить на тему  [ 1 сообщение ] 
   Похожие торренты   Автор   Торрент   Размер 
В этой теме нет новых непрочитанных сообщений. Энни / Annie [драма, комедия, мюзикл, семейный, 1982] BDRip 1080, Mvo

jons3

20 | 4

9.09 ГБ

В этой теме нет новых непрочитанных сообщений. Моана / Moana (мультфильм, мюзикл, фэнтези, комедия, приключения, семейный, 2016) TS | D

marya111

1168 | 134

1.37 ГБ

В этой теме нет новых непрочитанных сообщений. Семья Джетсонов / Jetsons: The Movie [мультфильм, мюзикл, фантастика, комедия, семейный, 1990] BDRemux 1080p, Mvo

jons3

13 | 7

13.09 ГБ

В этой теме нет новых непрочитанных сообщений. Тролли / Trolls (мультфильм, мюзикл, фэнтези, комедия, приключения, семейный, 2016) WEB-DLRip от Scarabey | iTunes

marya111

4437 | 1038

1.45 ГБ

В этой теме нет новых непрочитанных сообщений. Тролли / Trolls (мультфильм, мюзикл, фэнтези, комедия, приключения, семейный, 2016) BDRip от ExKinoRay | iTunes

marya111

89 | 15

1.42 ГБ




Вы не можете начинать темы
Вы не можете отвечать на сообщения
Вы не можете редактировать свои сообщения
Вы не можете удалять свои сообщения
Вы не можете добавлять вложения

Перейти:  
cron