Начать новую тему Ответить на тему
Статистика раздачи
Размер: 1.37 ГБ | Добавлен: 13 янв 2012, 23:01
Сидеров: 12    Личеров: 4
Автор Сообщение

СообщениеДобавлено: 13 янв 2012, 23:01 

Не в сети
Аватара пользователя
Раздал: 0 байт
Скачал: 0 байт
Ратио: Inf.
Спасибо: 3179 / 43
Сообщения: 23186
Откуда: 9CaraTT.COM
Зарегистрирован: 10 янв 2012, 22:17
[b]Вой: Перерождение / The Howling: Reborn[/b]

#77Перевод: Профессиональный (многоголосый, закадровый) R5, cубтитры: отсутствуют

Формат: HDRip, AVI, XviD, AC3

Страна: США

Режиссер: Джо Нимзики

Жанр: ужасы, триллер

Продолжительность: 01:32:06

Год выпуска: 2011

В ролях: Лэндон Либуарон, Ивана Миличевич, Линдси Шоу, Нильс Шнайдер, Эрин Симс, Эрин Агостино, Шон Меркадо.

Описание: Накануне окончания средней школы обыкновенному парню Уиллу Кидману все-таки удается обратить на себя внимание красавицы Элины Уинтер. Молодые люди счастливы, но внезапно открывается страшная тайна прошлого Уилла — близится час, когда ему предстоит стать оборотнем. Не желая смириться с судьбой, молодые люди нарушают древний мистический цикл и теперь за ними начинает охотиться целая армия безжалостных демонических тварей. Тем временем сдерживать возрастающую жажду крови Уиллу становится все труднее…

[/field]

Видео: 720x400 (1.80:1), 23.976 fps, XviD MPEG-4 ~1734 kbps avg, 0.25 bit/pixel
Аудио: 48 kHz, AC3 Dolby Digital, 3/2 (L,C,R,l,r) + LFE ch, ~384 kbps

General
Complete name: E:\Voj.Pererozhdenie.2011.P.HDRip.1400MB.avi
Format: AVI
Format/Info: Audio Video Interleave
File size: 1.37 GiB
Duration: 1h 32mn
Overall bit rate: 2 128 Kbps
Writing application: VirtualDubMod 1.5.4.1 (build 2178/release)
Writing library: VirtualDubMod build 2178/release

Video
ID: 0
Format: MPEG-4 Visual
Format profile: Advanced Simple@L5
Format settings, BVOP: 2
Format settings, QPel: No
Format settings, GMC: No warppoints
Format settings, Matrix: Custom
Codec ID: XVID
Codec ID/Hint: XviD
Duration: 1h 32mn
Bit rate: 1 735 Kbps
Width: 720 pixels
Height: 400 pixels
Display aspect ratio: 16:9
Frame rate: 23.976 fps
Color space: YUV
Chroma subsampling: 4:2:0
Bit depth: 8 bits
Scan type: Progressive
Compression mode: Lossy
Bits/(Pixel*Frame): 0.251
Stream size: 1.12 GiB (82%)
Writing library: XviD 58

Audio
ID: 1
Format: AC-3
Format/Info: Audio Coding 3
Mode extension: CM (complete main)
Codec ID: 2000
Duration: 1h 32mn
Bit rate mode: Constant
Bit rate: 384 Kbps
Channel(s): 6 channels
Channel positions: Front: L C R, Side: L R, LFE
Sampling rate: 48.0 KHz
Bit depth: 16 bits
Compression mode: Lossy
Stream size: 253 MiB (18%)
Alignment: Split accross interleaves
Interleave, duration: 42 ms (1.00 video frame)
Interleave, preload duration: 500 ms





















Поделиться:

Торрент:  Добавлен [13 янв 2012, 23:01]

Скачать торрент Магнет ссылка
Скачать торрент

Кем проверен:
 
Размер:  1.37 ГБ
Скачали:  20
Здоровье: 100%
Приватный:  Нет (DHT включён)


Вернуться к началу
 Профиль  
 
Начать новую тему Ответить на тему  [ 1 сообщение ] 
   Похожие торренты   Автор   Торрент   Размер 
В этой теме нет новых непрочитанных сообщений. Перерождение / Jie ma you xi / Reborn [Kомедия, боевик, криминал, 2018] BDRip 1080p, Dvo

jons3

15 | 6

9.04 ГБ

В этой теме нет новых непрочитанных сообщений. Омен: Перерождение / The Prodigy [Ужасы, триллер, 2019] WEB-DLRip, Dub [iTunes]

jons3

20 | 0

1.42 ГБ

В этой теме нет новых непрочитанных сообщений. Омен: Перерождение / The Prodigy [Ужасы, триллер, 2019] BDRip, Dub [iTunes]

jons3

0 | 0

1.42 ГБ

В этой теме нет новых непрочитанных сообщений. Омен: Перерождение / The Prodigy [Ужасы, триллер, 2019] BDRip, Dub [iTunes]

jons3

0 | 4

2.06 ГБ

В этой теме нет новых непрочитанных сообщений. Омен: Перерождение / The Prodigy [Ужасы, триллер, 2019] WEB-DL 1080p, Dub [iTunes]

jons3

5703 | 2020

4.71 ГБ




Вы не можете начинать темы
Вы не можете отвечать на сообщения
Вы не можете редактировать свои сообщения
Вы не можете удалять свои сообщения
Вы не можете добавлять вложения

Перейти:  
cron