Начать новую тему Ответить на тему
Статистика раздачи
Размер: 2.01 ГБ | Добавлен: 13 янв 2012, 23:10
Сидеров: 215    Личеров: 8
Автор Сообщение

СообщениеДобавлено: 13 янв 2012, 23:10 

Не в сети
Аватара пользователя
Раздал: 0 байт
Скачал: 0 байт
Ратио: Inf.
Спасибо: 3179 / 43
Сообщения: 23186
Откуда: 9CaraTT.COM
Зарегистрирован: 10 янв 2012, 22:17
Подстава / Setup

#77

Перевод: Профессиональный (двухголосый, закадровый),субтитры: отсутствуют
Формат: HDRip-AVC, MKV, H.264, AC3
Страна: США
Жанр: боевик, драма, криминал
Продолжительность: 01:24:00
Режиссер: Майк Гюнтер / Mike Gunther
Год выпуска: 2011

В ролях: Фифти Сент, Брюс Уиллис, Райан Филипп, Дженна Деван, Джеймс Римар, Рэнди Кутюр, Уилл Юн Ли, Шон Тоуб, Джей Карнс, Сьюзи Абромейт, Эмбир Чайлдерс, Джордан Тровиллион, Омар Дж. Дорси, Тео Кипри, Ричард Готери, Рори Маркхам, Чик Бернхард, Майкл Мили, Ральф Листер, Алекс Сэйфи, Энтони Москат, Карлос Фэйзон, Дэвис Кофлин, Аарон Кобб, Майк Энкрайл

Описание:Лучшие друзья Сони, Винсент и Дейв вместе выросли на бандитских улицах и зарабатывают на жизнь разбоем. Устав от такой жизни, они решают покончить с преступлениями, когда завершат последнее криминальное дело. Однако один их них решил прекратить преступный путь двоих других в полном смысле слова. После удачного, но кровавого похищения алмазов Винсент стреляет в своих товарищей и бросает их умирать. Дейв погибает на месте, а Сони чудом остается в живых. Теперь у него одна цель — отомстить предателю.

________

Видео: 1136 x 472 (2:40:1), 23,976 кадр/сек, AVC (х264), High@L3.1, ~ 2933Kbps, 0.228 bit/pixel
Аудио: 48 kHz, AC3 Dolby Digital, 3/2 (L,C,R,l,r) + LFE ch, ~448 kbps


Автор РИПа:ddimmon22
Общее
Уникальный идентификатор: 216483152738766014654837550593161100207 (0xA2DD237D5A871F6B8E9EEEAC0F00FBAF)
Полное имя: K:\РИПЫ\setUp_[rutracker.in].mkv
Формат: Matroska
Версия формата: Version 2
Размер файла: 2,01 Гбайт
Продолжительность: 1 ч. 24 м.
Общий поток: 3382 Кбит/сек
Дата кодирования: UTC 2011-09-14 09:53:43
Программа кодирования: mkvmerge v4.9.1 ('Ich will') сборка от Aug 10 2011 09:31:20
Библиотека кодирования: libebml v1.2.1 + libmatroska v1.2.0

Видео
Идентификатор: 1
Формат: AVC
Формат/Информация: Advanced Video Codec
Профиль формата: High@L3.1
Параметр CABAC формата: Да
Параметр ReFrames формата: 8 кадров
Идентификатор кодека: V_MPEG4/ISO/AVC
Продолжительность: 1 ч. 24 м.
Битрейт: 2933 Кбит/сек
Ширина: 1136 пикс.
Высота: 472 пикс.
Соотношение сторон: 2,40:1
Частота кадров: 23,976 кадр/сек
Цветовое пространство: YUV
Подвыборка цветности: 4:2:0
Битовая глубина: 8 бит
Тип развёртки: Прогрессивная
Бит/(Пиксели*Кадры): 0.228
Размер потока: 1,70 Гбайт (85%)
Библиотека кодирования: x264 core 116 r2074 2641b9e
Настройки программы: cabac=1 / ref=8 / deblock=1:-1:-1 / analyse=0x3:0x133 / me=umh / subme=7 / psy=1 / psy_rd=1.00:0.10 / mixed_ref=1 / me_range=16 / chroma_me=1 / trellis=2 / 8x8dct=1 / cqm=0 / deadzone=21,11 / fast_pskip=0 / chroma_qp_offset=-3 / threads=6 / sliced_threads=0 / nr=0 / decimate=1 / interlaced=0 / bluray_compat=0 / constrained_intra=0 / bframes=3 / b_pyramid=2 / b_adapt=2 / b_bias=0 / direct=3 / weightb=1 / open_gop=0 / weightp=2 / keyint=250 / keyint_min=23 / scenecut=40 / intra_refresh=0 / rc_lookahead=50 / rc=2pass / mbtree=1 / bitrate=2933 / ratetol=1.0 / qcomp=0.60 / qpmin=0 / qpmax=69 / qpstep=4 / cplxblur=20.0 / qblur=0.5 / ip_ratio=1.40 / aq=1:1.00

Аудио
Идентификатор: 2
Формат: AC-3
Формат/Информация: Audio Coding 3
Расширение режима: CM (complete main)
Идентификатор кодека: A_AC3
Продолжительность: 1 ч. 24 м.
Вид битрейта: Постоянный
Битрейт: 448 Кбит/сек
Каналы: 6 каналов
Расположение каналов: Front: L C R, Side: L R, LFE
Частота: 48,0 КГц
Битовая глубина: 16 бит
Метод сжатия: С потерями
Размер потока: 272 Мбайт (13%)










Поделиться:

Торрент:  Добавлен [13 янв 2012, 23:10]

Скачать торрент Магнет ссылка
Скачать торрент

Кем проверен:
 
Размер:  2.01 ГБ
Скачали:  444
Здоровье: 100%
Приватный:  Нет (DHT включён)


Вернуться к началу
 Профиль  
 
Начать новую тему Ответить на тему  [ 1 сообщение ] 
   Похожие торренты   Автор   Торрент   Размер 
В этой теме нет новых непрочитанных сообщений. Подстава / Rigged [боевик, драма, криминал, приключения, 2008] BDRip 1080p, Dvo

jons3

105 | 60

6.54 ГБ

В этой теме нет новых непрочитанных сообщений. Подстава / The Death and Life of Bobby Z [Боевик, триллер, драма, криминал, 2007] BDRip 1080p, Mvo

jons3

13 | 3

7.63 ГБ

В этой теме нет новых непрочитанных сообщений. Подстава / Жизнь и смерть Бобби Зи / The Death and Life of Bobby Z [боевик, триллер, драма, криминал, 2007] BDRemux 1080p, Mvo

jons3

0 | 0

19.34 ГБ

В этой теме нет новых непрочитанных сообщений. Майк и Молли / Mike & Molly [S01-06] [ситком, 2010-2016] HDTVRip, WEB-DLRip, Avo [Кураж-Бамбей]

jons3

25 | 52

24.48 ГБ

В этой теме нет новых непрочитанных сообщений. Подстава / Жизнь и смерть Бобби Зи / The Death and Life of Bobby Z [боевик, триллер, драма, 2007] BDRip 720p, Mvo

jons3

0 | 0

4.63 ГБ




Вы не можете начинать темы
Вы не можете отвечать на сообщения
Вы не можете редактировать свои сообщения
Вы не можете удалять свои сообщения
Вы не можете добавлять вложения

Перейти:  
cron